#TITLE:Jing Wu Men;
#SUBTITLE:;
#ARTIST:Show Luo;
#TITLETRANSLIT:Jing Wu Men;
#SUBTITLETRANSLIT:;
#ARTISTTRANSLIT:La Chi Tuong;
#CREDIT:;
#BANNER:Jing Wu Men-bn.png;
#BACKGROUND:Jing Wu Men-bg.png;
#LYRICSPATH:;
#CDTITLE:pm4cd.png;
#MUSIC:Jing Wu Men.mp3;
#OFFSET:-0.040;
#SAMPLESTART:65.130;
#SAMPLELENGTH:20.000;
#SELECTABLE:YES;
#BPMS:0.000=129.990,204.750=64.990,206.250=129.990;
#STOPS:;
#BGCHANGES:;
// cache tags:
#FIRSTBEAT:1.250;
#LASTBEAT:473.250;
#SONGFILENAME:Songs/Music V.I.P ^_^/Jing Wu Men/Jing Wu Men.sm;
#HASMUSIC:1;
#HASBANNER:1;
#MUSICLENGTH:223.628;
// end cache tags

//---------------dance-single - ----------------
#NOTES:
     dance-single:
     :
     Hard:
     16:
     1.000,1.000,1.000,1.000,1.000,1137.000,584.000,341.000,0.000,430.000:
0000
0000
0000
0000
0000
0100
0010
0001
0000
0100
0000
0010
0100
1000
0000
1101
,
0000
0000
0000
0000
0000
0111
0000
0000
0000
0000
0000
0000
1101
0000
0000
0000
0000
0000
0010
0000
0100
0000
1000
0000
0000
0000
0010
0000
0000
0000
0001
0000
,
0010
0000
0100
0000
0000
0000
1110
0000
0000
0000
0000
0000
0000
1101
0000
0000
0000
0000
0000
0000
0111
0000
0000
0000
0000
0000
1101
0000
0000
0000
1101
0000
,
0000
1101
0000
1111
0000
1000
0000
0011
0000
0110
0000
0001
0000
1000
0000
0101
,
0000
0001
0000
1010
0000
0100
0000
0011
0000
1100
0000
0001
0000
0110
0000
1001
,
0000
1100
0000
1100
0000
0001
0000
0110
0000
0101
0000
0010
0000
1000
0000
0101
,
0000
0010
0000
1100
0000
0010
0000
0101
0000
1010
0000
0001
0000
0110
0000
1001
,
0000
0011
0000
1011
0100
1000
0100
0011
0100
1001
0000
0101
0010
0001
0010
1100
,
0000
0001
0000
0110
1000
0100
0010
0101
0000
1010
0100
0011
1000
0101
0010
1001
,
0000
0011
0000
1100
0010
0001
0010
0101
0000
1010
0100
0010
0001
1100
0010
0101
,
0000
1100
0000
1111
0000
1100
0000
1111
0000
1100
0000
1111
0000
1100
0000
1111
,
0000
1100
0000
1211
0010
0001
0010
1001
0000
0001
0000
0010
0000
1001
0000
0011
,
0000
1001
0000
1312
0100
0010
0100
1010
0000
0010
0000
0100
0000
1010
0000
1100
,
0000
0010
0000
2113
0001
0010
0100
0011
0000
0100
0000
0010
0000
0101
0000
0010
,
0000
0100
0000
3121
1000
0100
0001
1100
0000
0001
0000
0100
0000
1000
0000
0100
,
0000
0001
0000
1130
0000
0001
0000
1010
0000
0100
0000
0001
0000
1010
0000
0101
,
0000
1001
0000
0110
0000
1000
0000
0011
0000
0100
0000
0001
0000
0011
0000
0210
,
0000
0001
0000
1021
0000
1300
0000
1031
0000
0100
0000
0001
0000
0011
0000
1100
,
0000
0010
0000
1001
0000
0100
0000
0110
0000
0001
0000
0100
0000
0101
0010
0100
,
1000
0100
0010
1100
0000
0001
0000
1010
0000
0100
0000
1000
0000
1100
0000
0110
,
0000
0101
0000
1001
0000
0100
0000
1010
0000
0010
0000
0100
0000
0011
0000
1020
,
0000
0200
0000
1001
0000
0031
0000
0311
0000
1000
0000
0010
0000
1100
0000
0011
,
0000
0001
0000
1001
0000
0100
0000
1010
0000
0001
0000
0022
1000
1100
0100
1000
,
0100
1000
0133
1112
0010
0100
1000
0110
0000
1000
0000
0010
0000
1100
0000
1010
,
0000
0010
0000
1123
0001
0100
0001
1100
0000
0001
0000
0100
0000
1001
0000
1100
,
0000
0100
0000
1231
0010
0001
0010
1001
0000
0010
0000
1000
0000
0011
0000
1010
,
0000
1000
0000
2311
0100
0010
0100
0011
0000
0100
0000
0001
0010
0100
0000
0100
,
0000
0001
0000
3111
0000
1000
0000
0110
0000
0001
0000
1000
0000
0101
0000
0110
,
0000
1010
0000
0101
0000
0010
0000
1100
0000
0010
0000
0100
0000
0012
0000
0120
,
0000
1203
0000
1331
0000
0100
0000
0011
0000
1000
0000
0100
0000
1001
0000
0101
,
0000
1000
0000
0110
0000
0001
0000
1010
0000
0100
0010
0001
0010
0001
0010
0100
,
0010
0202
0300
1113
0000
0001
0000
1100
0000
0010
0000
0100
0000
1001
0000
1100
,
0000
0011
0000
0110
0000
1000
0000
0101
0000
0010
0000
0001
0000
1020
0000
2001
,
0000
0132
3000
1103
0000
0010
0000
0101
0000
0010
0000
1000
0000
0011
0000
0110
,
0000
0001
0000
1100
0000
1000
0010
0101
0010
0001
0000
1100
0010
0001
0000
1010
,
0100
1000
0100
1112
0000
1000
0100
0010
0100
1000
0100
1000
0000
0110
0000
1100
,
0000
0010
0003
1211
0000
0001
0000
1010
0000
0001
0000
1000
0000
0011
0000
1001
,
0000
1310
0000
1121
0000
0100
0001
0100
1000
0100
0001
0100
0000
1001
0000
0101
,
0000
1000
0000
0101
0000
0001
0000
1100
0000
0001
0000
0100
0000
1100
0000
0101
,
0000
1001
0030
2111
0000
0001
0010
0100
0010
0001
0010
0001
0000
0101
0000
0110
,
0000
0011
3000
1211
0000
1000
0000
0011
0000
1000
0000
0010
0000
1001
0000
1010
,
0000
0011
0300
1112
0000
1000
0100
0010
0100
0010
0100
1000
0000
0110
0000
1100
,
0000
1010
0003
1121
0000
1000
0100
1000
0100
0001
0100
1000
0100
1001
0100
0001
,
0100
1001
0130
1111
0000
0022
0100
1000
0033
0220
0001
1000
0330
2002
0100
0010
,
3003
2200
0001
0010
3300
0022
1000
0100
0033
2200
0010
0001
3310
2002
0010
0100
,
3003
0202
1000
0010
0303
2200
0010
0001
3300
0202
0010
1000
0303
2020
0001
0100
,
3030
2002
0010
0100
3003
0220
1000
0001
0330
2002
0100
0010
3003
2200
0001
0010
,
3300
0001
0000
1111
0000
2200
0001
0022
3333
0022
0100
2200
3333
0220
0001
2002
,
3333
2020
0100
0202
3333
0202
0010
2020
3333
2002
0010
0220
3333
2200
0001
0022
,
3333
0022
1000
2200
3333
0202
1000
2020
3333
2002
0100
0220
3333
0220
1000
2002
,
3333
2020
0001
0202
3333
1110
0000
1110
0000
0000
0000
1101
0000
1101
0000
0020
,
0000
0230
0300
2022
0000
0000
0000
0000
0000
3133
0000
1010
0000
1111
0000
0001
,
0000
1100
0000
0010
0000
0100
0000
1001
0000
1010
0000
0110
0000
0111
0000
1000
,
0000
0110
0000
0001
0000
0010
0000
0101
0000
2001
0000
0201
3000
1311
0000
0100
,
0000
1010
0000
0001
0000
1000
0000
0110
0000
1001
0000
0100
0000
0111
0000
1000
,
0000
0101
0000
0010
0000
0001
0000
1100
0000
0110
0000
0011
0000
1101
0000
0010
,
0000
0011
0000
0100
0000
0001
0000
0110
0000
1100
0000
0101
0000
1110
0000
0001
,
0000
0101
0000
0010
0000
0100
0000
1001
0000
1010
0000
0101
0000
1101
0000
0010
,
0000
1100
0000
0010
0000
0001
0000
0011
0000
0110
0000
1100
0000
0122
0000
0000
,
0000
2230
0000
0000
0000
0323
0000
3000
0000
2200
0000
0030
3300
1111
0000
0001
,
0000
0110
0000
0001
0000
1000
0000
1010
0000
0101
0000
1001
0000
0111
0000
1000
,
0000
0101
0000
0010
0000
1000
0000
0101
0000
0011
0000
1001
0000
1101
0000
0010
,
0000
0101
0000
1000
0000
0010
0000
1001
0000
1100
0000
0001
0000
1011
0000
0100
,
0000
0011
0000
1000
0000
0100
0000
1001
0000
0110
0000
0011
0000
1110
0000
0001
,
0000
0110
0000
1000
0000
0100
0000
0011
0000
1100
0000
0011
0000
0111
0000
1000
,
0000
0011
0000
0100
0000
0010
0000
1001
0000
0011
0000
0110
0000
1101
0000
0010
,
0000
1100
0000
0010
0000
0001
0000
1010
0000
1001
0000
0101
0000
2002
0000
0000
,
0000
0223
0000
0030
0000
3022
0000
0303
0000
2200
0000
3030
0000
0301
0000
1000
,
0100
1000
0000
0010
0000
1000
0100
1000
0000
0110
0000
0000
0000
1211
0000
0001
,
0010
1000
0010
0001
0010
0001
0000
1010
0000
1001
0000
0011
0300
2111
0000
0100
,
0000
0010
0000
0001
0000
0010
0000
0101
0000
0011
0000
0101
3000
1112
0000
0010
,
0100
0010
0100
1000
0100
1000
0000
0110
0000
1010
0000
0100
0003
1211
0000
0001
,
0000
0010
0000
1000
0000
0001
0000
1001
0000
0011
0000
1010
0300
2111
0000
0100
,
0010
0100
0010
0001
0010
0100
0000
0011
0000
0110
0000
0101
3000
1112
0000
0100
,
0000
1010
0000
0100
0000
1000
0000
1010
0000
0110
0000
1100
0003
1211
0000
0010
,
1000
0010
0001
0010
1000
0010
0000
1001
0000
0011
0000
1010
0300
1111
0000
0011
,
0100
1011
0000
1100
0010
1101
0000
0101
0010
1101
0000
1011
0000
1112
0000
1000
,
0100
1000
0100
0010
0100
1000
0000
0110
0000
1010
0000
1100
0003
1121
0000
1000
,
0000
0101
0000
0100
0000
0001
0000
1100
0000
0101
0000
1001
0030
1211
0000
0010
,
1000
0010
0001
0010
1000
0010
0000
1001
0000
0011
0000
1010
0300
2111
0000
0100
,
0000
0101
0000
0010
0000
0100
0000
0110
0000
0101
0000
0011
3000
1112
0000
0010
,
0100
0010
0100
1000
0100
1000
0000
0110
0000
1010
0000
1100
0003
1211
0000
0001
,
0000
0011
0000
1000
0000
0010
0000
1001
0000
1010
0000
0011
0300
1121
0000
0100
,
1000
0100
0001
0100
1000
0100
0000
0101
0000
1001
0000
1100
0030
2111
0000
0001
,
0010
0001
0010
0100
0010
0100
0010
0101
0010
0101
3010
0002
0000
0020
0000
1003
,
0100
1030
0000
0001
0000
0100
0010
0100
0000
0011
0000
0000
0000
1111
0000
0202
,
0010
0010
0303
2020
0100
0100
3030
0220
1000
1000
0330
2002
0010
0010
3003
0022
,
0100
0100
0033
2200
0001
0001
3300
2002
0010
0010
3003
2200
0010
0010
3300
0202
,
0010
0010
0303
2020
0100
0100
3030
2002
0100
0100
3003
0022
1000
1000
0033
2002
,
0010
0010
3003
2200
0010
0010
3300
0202
1000
1000
0303
0220
1000
1000
0330
2220
,
0001
0002
3333
2202
0010
0020
3333
2220
0001
0002
3333
0222
1000
2000
3333
2202
,
0010
0020
3333
2022
0100
0200
3333
2220
0001
0002
3333
0222
1000
2000
3333
2202
,
0010
0020
3333
2022
0100
0200
3333
2220
0001
0002
3333
0222
1000
2000
3333
1100
,
0110
0000
0011
0001
0001
0001
0001
0000
0000
0000
0110
0000
0000
0000
0011
0000
0110
0000
1100
1000
1000
1000
1000
0000
0000
0000
1112
0000
1000
0000
0100
0000
,
0010
2200
3300
0220
0330
2020
3030
2200
3300
2020
3030
0220
0333
1211
0010
0001
,
0010
2002
3003
0022
0033
2002
3003
2020
3030
0022
0033
2002
3303
2111
0100
0010
,
0001
0220
0330
0202
0303
0022
0033
0220
0330
0202
0303
0022
3033
1121
1000
0100
,
0001
2200
3300
2002
3003
2200
3300
0202
0303
2002
3003
2200
3330
2111
0001
0010
,
0100
0022
0033
0220
0330
0202
0303
0022
0033
0202
0303
0220
3330
1211
0001
0010
,
0001
2020
3030
2002
3003
0022
0033
2002
3003
2020
3330
1112
0010
1000
0100
2020
,
3030
0220
0330
2200
3300
2020
3030
0220
0330
2200
3303
2122
0033
0222
0333
0202
,
0303
0222
0333
0220
0330
0222
0333
0202
0303
0222
0333
0022
3033
1111
0000
0001
,
0010
0101
0010
0100
0010
1001
0000
1110
0000
1100
0000
0111
0000
1011
0000
1001
,
0000
1100
0000
0011
0000
0101
0000
1011
0000
0111
0000
1101
0000
1111
0000
1000
,
0100
1001
0010
0001
0010
1100
0000
0111
0000
1001
0000
0110
0000
1011
0000
0101
,
0000
1001
0000
1100
0000
0011
0000
1101
0000
0101
0000
0011
0000
1111
0000
0001
,
0010
0101
0010
0100
1000
0110
0000
1101
0000
1110
0000
0111
0000
1011
0000
1100
,
0000
0110
0000
1001
0000
1010
0000
0111
0000
1001
0000
0101
0000
1111
0000
1000
,
0100
0011
0100
0010
0001
1010
0000
1101
0000
1011
0000
1101
0000
0111
0000
0101
,
0010
1100
0000
0110
0000
0011
0100
0010
0100
0010
0100
0010
0100
1111
0000
0001
,
0010
0101
1000
0100
0010
1001
0000
1101
0000
1110
0000
1011
0000
0111
0000
1100
,
0000
0101
0000
1001
0000
0101
0000
1110
0000
0111
0000
1101
0000
1111
0000
1100
,
0000
0110
0000
1001
0000
0110
0000
1101
0000
0111
0000
0101
0000
1011
0000
0011
,
0000
1100
0000
0011
0000
0110
0000
1101
0000
0111
0000
1011
0000
1111
0000
1000
,
0010
0101
0010
1000
0100
0011
0000
1110
0000
1011
0000
1101
0000
0111
0000
0011
,
0000
1001
0000
1010
0000
1100
0000
0111
0000
1101
0000
1110
0000
1111
0000
0110
,
0000
1001
0000
0101
0000
1010
0000
0111
0000
1101
0000
1011
0000
1110
0000
0011
,
0000
0110
0000
1100
0000
0101
0000
1101
0000
2001
0000
0210
0000
3021
0000
0301
,
0030
0100
0000
1000
0000
0100
0000
0000
0000
0000
0000
0000
0000
0000
0000
0000
;

//---------------dance-single - ----------------
#NOTES:
     dance-single:
     :
     Medium:
     1:
     0.000,0.000,0.000,0.000,0.000,0.000,0.000,0.000,0.000,0.000:
0000
0000
0000
0000
;
